<?xml version="1.0" encoding="UTF-8" standalone="no"?> <svg xmlns="http://www.w3.org/2000/svg" xmlns:svg="http://www.w3.org/2000/svg" xml:space="preserve" width="7.8295932mm" height="10.182001mm" version="1.1" style="clip-rule:evenodd;fill-rule:evenodd;image-rendering:optimizeQuality;shape-rendering:geometricPrecision;text-rendering:geometricPrecision" viewBox="0 0 782.95932 1018.2001" id="svg2147"> <defs id="defs47"><font id="FontID3" font-variant="normal" style="fill-rule:nonzero" font-style="normal" font-weight="700" vert-origin-x="512" vert-origin-y="768" vert-adv-y="1024"> <glyph unicode="e" d="M532.662 223.991l-373.653 0c2.33156,-41.6667 16.6626,-74.1478 42.9932,-97.3227 26.3306,-23.1749 61.8267,-34.672 106.488,-34.672 55.837,0 98.1669,14.3311 127.171,43.0133l47.3348 -93.0013c-42.9932,-34.672 -106.991,-52.018 -192.334,-52.018 -79.6551,0 -142.668,23.3357 -189.158,70.168 -46.3298,46.6715 -69.5047,112.016 -69.5047,195.671 0,82.5092 25.5065,149.341 76.3386,200.494 50.9929,51.1738 111.995,76.6803 183.329,76.6803 75.8361,0 136.658,-22.6725 182.505,-67.9973 45.8273,-45.3449 68.8214,-103.011 68.8214,-172.998 0,-15.0145 -3.49735,-37.6668 -10.3312,-68.0174zm-368.669 92.0164l256.01 0c-8.50217,76.6602 -50.6713,114.99 -126.507,114.99 -69.5047,0 -112.659,-38.3301 -129.502,-114.99z" id="glyph1"></glyph> <glyph unicode="K" d="M478.996 0l-199.329 304.49 -79.6752 -108.82 0 -195.671 -126.99 0 0 715.006 126.99 0 0 -342.338 243.005 342.338 144.999 0 -224.333 -312.349 267.346 -402.657 -152.014 0z" id="glyph2"></glyph> <glyph unicode=" " d="" id="glyph3"></glyph> <glyph unicode="u" d="M402.999 0l0 43.9982c-17.3259,-14.6728 -41.0034,-27.3356 -71.3338,-37.9884 -30.3304,-10.6729 -58.1685,-16.0195 -83.4941,-16.0195 -121.503,0 -182.164,64.4999 -182.164,193.5l0 339.504 121.985 0 0 -330.318c0,-67.1732 30.1696,-100.679 90.3481,-100.679 27.818,0 53.4853,7.17559 77.3235,21.5067 23.6774,14.3311 39.4959,30.9937 47.3348,49.8271l0 359.664 122.005 0 0 -522.994 -122.005 0z" id="glyph4"></glyph> <glyph unicode="B" d="M291.827 0l-218.825 0 0 715.167c96.4986,4.50233 164.174,6.8339 202.826,6.8339 74.3287,0 132.497,-15.8386 174.345,-47.6765 41.8275,-31.8178 62.8316,-77.3235 62.8316,-136.316 0,-56.6811 -30.0088,-101.503 -90.0064,-134.507 88.6598,-30.8329 133,-94.6696 133,-191.329 0,-65.0024 -24.5015,-116.679 -73.6654,-154.848 -49.1639,-38.1492 -112.659,-57.3243 -190.505,-57.3243zm-91.8355 613.503l0 -171.511c19.6776,-1.32658 40.1793,-1.98987 61.6659,-1.98987 82.8509,0 124.337,31.1545 124.337,93.3229 0,55.1737 -37.6668,82.67 -113,82.67 -19.9992,0 -44.3198,-0.824087 -73.0021,-2.49236zm0 -271.004l0 -235.991c25.6673,-2.35166 46.5107,-3.51745 62.51,-3.51745 56.5002,0 97.6644,9.66795 123.171,28.8431 25.4864,19.1751 38.3301,50.9929 38.3301,95.4936 0,40.6818 -11.8387,70.3489 -35.677,88.8406 -23.6573,18.4917 -65.1632,27.8381 -124.317,27.8381 -12.502,0 -33.667,-0.502492 -64.0175,-1.50748z" id="glyph5"></glyph> <glyph unicode="a" d="M356.991 52.1587c-10.9945,-18.15 -30.3304,-33.1645 -57.8268,-44.8223 -27.4964,-11.497 -56.1585,-17.346 -86.1674,-17.346 -56.1585,0 -100.498,14.1703 -132.658,42.3501 -32.1796,28.1597 -48.3398,68.1581 -48.3398,119.995 0,60.6609 22.6725,108.156 67.9973,142.326 45.3449,34.1695 109.845,51.3346 193.339,51.3346 14.3311,0 31.1746,-2.33156 50.6713,-6.99469 0,61.3242 -38.8326,91.9963 -116.498,91.9963 -45.8474,0 -84.3383,-7.65798 -115.171,-22.9941l-26.3306 94.9912c41.9883,19.9992 91.9963,30.0088 149.984,30.0088 79.6752,0 138.185,-18.1701 175.35,-54.5104 37.1643,-36.3201 55.6561,-105.001 55.6561,-206.323l0 -111.835c0,-69.6655 14.0095,-113.503 42.0084,-131.331 -10.1704,-17.8284 -21.3459,-28.6622 -33.667,-32.8429 -12.3412,-4.16064 -26.5115,-6.17061 -42.5109,-6.17061 -17.6676,0 -33.4861,6.5123 -47.4956,19.6776 -13.9894,13.0045 -23.4965,27.1748 -28.3406,42.4908zm-11.9995 194.846c-20.8233,3.99984 -36.3201,5.98971 -46.8323,5.98971 -96.1569,0 -144.155,-31.8379 -144.155,-95.3329 0,-47.1539 27.1547,-70.6705 81.3234,-70.6705 73.1629,0 109.664,37.0035 109.664,110.85l0 49.1639z" id="glyph6"></glyph> <glyph unicode="r" d="M368.166 409.009c-21.8283,14.6527 -45.6665,21.9891 -71.6755,21.9891 -28.3205,0 -53.4853,-12.8236 -75.4945,-38.6718 -21.9891,-25.6673 -33.0037,-57.1635 -33.0037,-94.3279l0 -297.998 -121.985 0 0 522.994 121.985 0 0 -47.9981c34.1695,38.6718 79.6752,58.0077 136.336,58.0077 41.6667,0 73.5046,-6.3314 95.6745,-19.1751l-51.8371 -104.82z" id="glyph7"></glyph> <glyph unicode="o" d="M31.9987 262.663c0,79.836 22.9941,144.838 69.0023,195.007 46.0082,50.1688 106.83,75.3337 182.324,75.3337 79.3335,0 140.839,-24.1799 184.837,-72.3388 43.8374,-48.1589 65.8466,-114.166 65.8466,-198.002 0,-83.3333 -22.3509,-149.662 -67.0124,-198.826 -44.8223,-49.1639 -106.006,-73.8463 -183.671,-73.8463 -79.4943,0 -141.16,24.8432 -185.158,74.5096 -44.159,49.6663 -66.1682,115.835 -66.1682,198.163zm127.01 0c0,-115.171 41.4858,-172.656 124.317,-172.656 38.0085,0 68.0174,14.9944 90.3481,44.8223 22.1499,30.0088 33.3253,72.6805 33.3253,127.834 0,113.503 -41.1642,170.345 -123.673,170.345 -38.1492,0 -68.3189,-15.0145 -90.6496,-44.8424 -22.5117,-29.9887 -33.667,-71.8363 -33.667,-125.502z" id="glyph8"></glyph> <glyph unicode="i" d="M160.999 726.001c19.6776,0 36.3402,-6.99469 50.1688,-20.8434 13.8286,-13.8286 20.8233,-30.4912 20.8233,-50.1487 0,-19.5168 -6.99469,-36.3402 -20.8233,-50.1688 -13.8286,-13.8487 -30.4912,-20.8434 -50.1688,-20.8434 -19.4967,0 -36.3402,6.99469 -50.1688,20.8434 -13.8286,13.8286 -20.8233,30.652 -20.8233,50.1688 0,19.6575 6.99469,36.3201 20.8233,50.1487 13.8286,13.8487 30.6721,20.8434 50.1688,20.8434zm-62.9924 -726.001l0 422.998 -67.0124 0 0 99.996 191.007 0 0 -522.994 -123.995 0z" id="glyph9"></glyph> </font><font id="FontID1" font-variant="normal" style="fill-rule:nonzero" font-style="normal" font-weight="400" vert-origin-x="512" vert-origin-y="768" vert-adv-y="1024"> <glyph unicode="A" d="M-1.49421 0l274.665 715.996 104.159 0 291.495 -715.996 -107.832 0 -82.8249 216.992 -301.498 0 -77.6782 -216.992 -100.486 0zm205.993 294.007l243.992 0 -74.6482 198.502c-22.5169,60.3287 -39.5136,110.156 -51.3427,149.483 -9.83688,-46.6526 -22.9942,-92.4957 -39.4928,-137.82l-78.5083 -210.165z" id="glyph10"></glyph> <glyph unicode="W" d="M200.494 0l-188.499 715.996 98.3481 0 107.313 -469.493c11.6839,-49.1637 22.0188,-97.9953 30.8388,-146.329 18.8436,76.3292 29.8427,120.325 32.9971,131.989l135.351 483.833 114.162 0 102.665 -362.491c25.1733,-90.0054 43.8302,-174.511 55.8253,-253.331 9.50484,45.1583 21.666,96.9991 36.5044,155.502l111.837 460.32 95.1729 0 -196.011 -715.996 -92.1637 0 -150.168 545.49c-12.6593,45.6772 -20.3379,73.6729 -23.1603,84.0078 -8.17665,-32.6651 -15.5024,-60.6608 -21.8321,-83.8418l-150.168 -545.656 -99.0122 0z" id="glyph11"></glyph> </font><font id="FontID0" font-variant="normal" style="fill-rule:nonzero" font-style="normal" font-weight="400" vert-origin-x="512" vert-origin-y="768" vert-adv-y="1024"> <glyph unicode="f" d="M349.004 654.172c-19.003,6.50787 -36.6784,9.83991 -53.0001,9.83991 -28.3483,0 -51.8287,-10.6729 -70.3371,-32.1749 -18.5084,-21.502 -27.6715,-48.6789 -27.6715,-81.5046 0,-8.82468 1.01523,-17.8316 2.99362,-27.3331l106 0 0 -77.9904 -106 0 0 -445.008 -92.9845 0 0 445.008 -76.012 0 0 77.9904 76.1682 0c0,66.6667 16.504,118.99 49.3297,156.996 33.0079,38.006 76.5066,57.009 130.522,57.009 26.9947,0 55.9938,-4.84186 86.9973,-14.6818l-26.0055 -68.1505z" id="glyph12"></glyph> <glyph unicode="w" d="M548.006 -9.99688l-24.0029 0 -153.494 356.009 -152.504 -356.009 -24.0029 0 -186.999 534 99.0055 0 111.502 -342.992 139.488 342.992 24.0029 0 143.497 -342.992 120.509 342.992 90.9872 0 -187.988 -534z" id="glyph13"></glyph> <glyph unicode="0" d="M31.0057 379.322c0,102.857 20.8389,186.688 62.487,251.524 41.4995,64.8355 100.181,97.1491 175.659,97.1491 74.6752,0 130.86,-26.9925 168.525,-81.0072 37.4863,-54.1633 56.3334,-148.488 56.3334,-283.332 0,-115.996 -19.6795,-207.141 -59.0089,-273.819 -39.3293,-66.5002 -97.0005,-99.8246 -172.657,-99.8246 -75.8346,0 -133.357,26.8141 -172.508,80.6504 -39.1807,53.658 -58.8305,156.515 -58.8305,308.66zm97.9815 -8.82904c0,-198.311 42.1832,-297.482 126.52,-297.482 48.3368,0 83.8313,21.9983 106.484,65.9948 22.682,43.8182 34.0081,120.991 34.0081,230.982 0,75.8346 -4.3402,131.514 -13.1692,167.009 -8.65067,35.4945 -22.8306,62.3384 -42.3318,80.6802 -19.3228,18.1634 -43.9966,27.3195 -73.8429,27.3195 -91.8279,0 -137.668,-91.5009 -137.668,-274.503z" id="glyph14"></glyph> <glyph unicode="t" d="M99.0022 449.997l-61.0009 0 0 73.0023 61.0009 0 0 109.338 93.0016 35.6638 0 -145.001 143.998 0 0 -73.0023 -143.998 0 0 -260.165c0,-44.002 7.49211,-75.331 22.328,-93.9958 14.8359,-18.4991 38.8386,-27.8403 71.8335,-27.8403 23.8369,0 48.6682,6.00066 74.171,18.002l13.6672 -81.3317c-38.5072,-9.82957 -80.8345,-14.6702 -126.999,-14.6702 -41.5075,0 -76.4997,15.3331 -105.169,46.1737 -28.5031,30.8319 -42.8332,69.6618 -42.8332,116.664l0 297.164z" id="glyph15"></glyph> <glyph unicode="c" d="M463.996 481.004l-46.3307 -65.0043c-9.49814,9.33243 -26.3314,18.1677 -50.4998,26.4971 -24.1684,8.33813 -47.8309,12.5072 -71.1619,12.5072 -50.8399,0 -91.3357,-17.6706 -121.173,-53.1687 -29.8289,-35.3324 -44.8305,-83.8348 -44.8305,-145.499 0,-61.3324 15.1674,-108.003 45.3364,-140.17 30.3347,-32.1663 72.3307,-48.171 125.996,-48.171 41.6645,0 83.6691,16.0047 125.996,48.0053l36.6668 -77.9999c-49.8282,-32.0006 -111.492,-48.0053 -185.166,-48.0053 -71.3276,0 -130.331,24.0027 -176.993,71.8335 -46.5051,47.8396 -69.8362,112.835 -69.8362,194.507 0,83.4947 24.3341,150.331 73.0023,200.83 48.8339,50.4998 115.495,75.8369 199.993,75.8369 27.3344,0 56.8406,-5.66923 88.6668,-17.0077 31.8349,-11.3297 55.1747,-22.9996 70.3334,-34.9922z" id="glyph16"></glyph> <glyph unicode="A" d="M480.001 0l-49.4967 151.002 -267.5 0 -53.0029 -151.002 -108.998 0 290.997 724.999 26 0 270.004 -724.999 -108.003 0zm-179.497 536.998l-111.501 -313.997 213.495 0 -101.994 313.997z" id="glyph17"></glyph> <glyph unicode="O" d="M38.9952 363.842c0,103.501 26.0055,190.004 78.0164,259.664 51.8287,69.6603 121.984,104.49 210.152,104.49 99.3362,0 175.504,-31.9927 228.504,-96.1604 52.8439,-64.1676 79.344,-153.508 79.344,-267.994 0,-117.506 -26.5001,-209.501 -79.6824,-276.012 -53.0001,-66.4844 -129.168,-99.8308 -228.166,-99.8308 -90.1731,0 -160.666,35.1686 -211.662,105.506 -50.9957,70.1549 -76.5066,160.328 -76.5066,270.337zm103.007 0c0,-81.9992 16.1656,-150.332 48.4967,-205.336 32.3311,-55.0046 77.9904,-82.4938 136.848,-82.4938 66.4844,0 117.324,25.1464 152.31,75.6475 34.8562,50.3449 52.3493,121.177 52.3493,212.183 0,184.147 -68.1765,276.168 -204.66,276.168 -60.5232,0 -106.521,-24.6779 -138.019,-74.1898 -31.4981,-49.4859 -47.3253,-116.829 -47.3253,-201.978z" id="glyph18"></glyph> <glyph unicode="n" d="M388.004 0l0 304.488c0,55.6857 -8.33073,94.684 -25.1744,117.021 -16.6615,22.3368 -44.8297,33.4791 -84.1664,33.4791 -21.1653,0 -43.3198,-6.32615 -66.4896,-18.9784 -23.0136,-12.8345 -40.8466,-28.3505 -53.1605,-47.0166l0 -388.993 -93.0178 0 0 522.988 63.4958 0 29.3398 -67.3227c30.6675,51.4943 80.6779,77.3456 150.161,77.3456 114.678,0 172.004,-69.6657 172.004,-209.179l0 -323.831 -92.9918 0z" id="glyph19"></glyph> <glyph unicode="8" d="M172.003 397.842c-30.3219,16.3203 -54.9957,38.824 -74.1699,67.8379 -19.1742,28.9842 -28.8356,58.9792 -28.8356,89.9848 0,53.004 18.0148,95.0088 54.0147,126.014 35.8215,30.8273 82.3152,46.3153 139.332,46.3153 61.3276,0 108.981,-15.488 142.81,-46.3153 33.8595,-31.0057 50.8339,-73.1889 50.8339,-126.52 0,-31.3327 -10.1668,-63.1707 -30.6489,-95.4844 -20.5119,-32.5218 -44.3533,-56.3334 -71.1674,-71.6728 85.823,-48.1584 128.839,-111.507 128.839,-189.988 0,-66.0246 -19.8579,-117.185 -59.5143,-153.512 -39.8347,-36.3269 -94.325,-54.4903 -163.649,-54.4903 -144.505,0 -216.861,69.3243 -216.861,208.003 0,40.1617 12.3369,79.4911 37.189,118.315 24.644,38.6753 55.3227,65.8462 91.8279,81.5125zm119.504 30.3219c44.3236,41.6778 66.5002,84.842 66.5002,129.344 0,26.8141 -8.82904,47.98 -26.5168,63.8247 -17.8364,15.8447 -40.6671,23.663 -68.9973,23.663 -63.6464,0 -95.4844,-29.4896 -95.4844,-88.3201 0,-43.6696 41.4995,-86.5067 124.498,-128.512zm-43.1642 -72.8321c-71.5241,-38.6753 -107.346,-91.1739 -107.346,-157.317 0,-35.5242 10.9991,-65.1922 33.1758,-89.1822 21.9983,-23.8414 50.6555,-35.8215 85.6744,-35.8215 36.3269,0 66.3218,11.6531 89.8065,35.1675 23.5144,23.4846 35.3459,53.331 35.3459,89.8362 0,26.4871 -8.17503,51.3095 -24.3467,74.4969 -16.142,23.336 -53.658,50.9825 -112.31,82.8205z" id="glyph20"></glyph> <glyph unicode="I" d="M89.9979 0l0 715.011 97.9902 0 0 -715.011 -97.9902 0z" id="glyph21"></glyph> <glyph unicode="k" d="M403.998 0l-163.832 261.831 -81.1659 -83.6604 0 -178.171 -93.0016 0 0 737 93.0016 0 0 -456.835 200.996 242.835 108.003 0 -167.67 -198.667 204.668 -324.332 -101 0z" id="glyph22"></glyph> <glyph unicode="F" d="M171.001 626.995l0 -197.996 250.996 0 0 -82.9884 -250.996 0 0 -346.011 -98.0086 0 0 715.007 442.015 0 0 -88.0125 -344.006 0z" id="glyph23"></glyph> <glyph unicode="h" d="M388.002 0l0 328.833c0,39.17 -9.49814,70.0019 -28.6689,92.5044 -19.1707,22.4938 -46.165,33.6665 -81.0002,33.6665 -22.3368,0 -44.8305,-6.67225 -67.4987,-19.8336 -22.5025,-13.1701 -39.8329,-28.5031 -51.8342,-46.1737l0 -388.996 -93.0016 0 0 737 93.0016 0 0 -271.329c12.3328,19.162 32.3321,35.1667 59.8322,47.9966 27.3344,12.8299 55.8376,19.3364 85.0036,19.3364 55.3317,0 98.6621,-18.1677 130.166,-54.6688 31.329,-36.5011 47.0023,-86.338 47.0023,-149.502l0 -328.833 -93.0016 0z" id="glyph24"></glyph> <glyph unicode="y" d="M265.669 -88.8325c-12.0013,-33.1694 -37.1727,-60.8352 -75.8369,-82.9975 -38.4984,-22.1711 -81.3317,-33.1694 -128.831,-33.1694l0 82.9975c38.6642,0 71.8335,9.00099 99.4994,27.1687 27.6658,18.002 41.4988,39.9986 41.4988,66.1643 0,28.5031 -4.99765,56.8319 -15.1674,84.6721 -9.99529,27.8316 -23.1653,62.1609 -38.9956,103.163l-141.835 363.834 94.9989 0 153.497 -404.33 137.501 404.33 94.9989 0 -221.327 -611.832z" id="glyph25"></glyph> <glyph unicode="W" d="M622.996 -10.004l-30.9976 0 -169.501 493.005 -159.497 -493.005 -30.9976 0 -226.002 725.007 102.003 0 143.493 -499.006 157.5 499.006 34.0067 0 154.5 -498.003 146.502 498.003 101.994 0 -223.001 -725.007z" id="glyph26"></glyph> <glyph unicode="v" d="M253.989 -9.9961l-24.001 0 -224.001 533.984 102.017 0 137.498 -365.977 141.507 365.977 96.9934 0 -230.014 -533.984z" id="glyph27"></glyph> <glyph unicode="e" d="M506.664 252.002l-376.664 0c0,-61.1666 16.6675,-108.169 50.1683,-140.998 29.6632,-28.6689 67.6645,-43.0077 114.161,-43.0077 53.0029,0 97.1706,15.6732 132.669,47.0023l39.0043 -67.0016c-14.3388,-14.3301 -36.3354,-26.8285 -65.8329,-37.3297 -37.1727,-13.8329 -78.5058,-20.6709 -123.999,-20.6709 -65.8329,0 -121.67,22.3368 -167.504,67.0016 -51.1626,49.1653 -76.6654,115.338 -76.6654,198.336 0,86.3293 26.1657,155.668 78.6628,207.834 46.8366,46.4964 102.334,69.8362 166.501,69.8362 74.5024,0 133,-21.0023 175.336,-63.1727 41.0016,-40.4958 61.4981,-94.1616 61.4981,-160.997 0,-20.6709 -2.49446,-39.5015 -7.33511,-56.8319zm-224.999 203.002c-41.4988,0 -76.1683,-13.5015 -104.166,-40.3388 -26.8285,-25.6685 -41.8302,-57.4947 -45.5021,-95.6617l290.003 0c0,37.8269 -11.6699,69.3303 -35.1667,94.6674 -25.8342,27.5001 -60.8352,41.3331 -105.169,41.3331z" id="glyph28"></glyph> <glyph unicode="ł" d="M76.0026 147.67l0 186.5 -51.9999 -36.1697 0 70.0019 51.9999 35.4981 0 333.499 93.0016 0 0 -270.998c7.83226,5.16336 30.4917,19.8336 67.9959,44.002l0 -64.0013 -67.9959 -47.3337 0 -235.334c0,-27.9973 7.99798,-50.0026 23.9939,-66.1643 16.1704,-16.1704 37.1727,-24.1684 62.9982,-24.1684l0 -83.0063c-119.996,0 -179.994,52.5058 -179.994,157.674z" id="glyph29"></glyph> <glyph unicode="/" d="M170.665 0l-78.6587 0 258.985 718.006 78.6884 0 -259.015 -718.006z" id="glyph30"></glyph> <glyph unicode="s" d="M31.9952 31.0059l32.6721 87.9933c51.6766,-33.9998 93.174,-50.9997 124.675,-50.9997 57.1696,0 85.6503,24.1591 85.6503,72.3211 0,34.6767 -27.6476,64.3549 -82.9949,89.1909 -42.4867,19.4991 -71.1757,34.3122 -85.9888,44.4913 -14.8391,9.99688 -27.6736,21.5037 -38.5036,34.3382 -11.0122,12.9907 -19.1607,26.6583 -24.4976,41.159 -5.33687,14.5007 -8.01833,29.9906 -8.01833,46.6781 0,42.9814 15.6722,76.4865 47.0166,100.646 31.3183,24.1852 72.1649,36.1866 122.67,36.1866 38.1652,0 86.3272,-12.0015 144.33,-36.1866l-26.3459 -85.8326c-36.8374,29.3398 -73.8311,43.9967 -110.981,43.9967 -22.1806,0 -40.8466,-5.15464 -56.0242,-15.6462 -15.1515,-10.5175 -22.6492,-23.6645 -22.6492,-39.6751 0,-33.5052 19.0045,-58.992 56.9874,-76.3303l66.5157 -30.3291c40.4821,-18.5098 70.1604,-39.6751 88.6702,-63.4958 18.4838,-23.8467 27.8298,-53.6811 27.8298,-89.5033 0,-46.8343 -16.5053,-83.6718 -49.3335,-110.174 -32.8543,-26.5021 -78.3349,-39.8313 -136.52,-39.8313 -54.9828,0 -106.659,13.6676 -155.16,41.0028z" id="glyph31"></glyph> <glyph unicode="m" d="M672.003 0l0 331.329c0,82.4938 -35.6632,123.676 -107.015,123.676 -22.4912,0 -43.4986,-7.00247 -62.9962,-20.8252 -19.4976,-13.8488 -32.8257,-29.5197 -39.9844,-47.1691l0 -387.01 -93.0105 0 0 371.99c0,25.6671 -9.65769,45.9977 -28.9991,60.8356 -19.4976,14.838 -45.0085,22.1788 -77.0012,22.1788 -18.5084,0 -38.3184,-7.15866 -59.3258,-21.502 -21.0074,-14.3434 -35.8454,-30.1705 -44.6701,-47.5075l0 -385.995 -93.0105 0 0 522.999 60.6794 0 30.6651 -60.0026c36.0016,46.6745 80.6716,69.9987 134.505,69.9987 74.9967,0 127.32,-23.3242 157.334,-69.9987 10.4907,19.836 29.8321,36.4962 58.1544,50.0065 28.3483,13.3281 57.5036,19.9922 87.5179,19.9922 54.1455,0 95.9781,-15.9833 125.654,-48.1583 29.6759,-31.9927 44.4878,-77.0012 44.4878,-134.999l0 -349.837 -92.9845 0z" id="glyph32"></glyph> <glyph unicode="E" d="M171.001 626.995l0 -197.996 231.004 0 0 -82.9884 -231.004 0 0 -257.998 323.988 0 0 -88.0125 -421.997 0 0 715.007 421.997 0 0 -88.0125 -323.988 0z" id="glyph33"></glyph> <glyph unicode="g" d="M47.0129 -143.173l50.3189 74.1637c54.1715,-36.0016 103.996,-53.9893 149.681,-53.9893 42.145,0 75.3091,7.15866 99.4924,21.6582 24.3395,14.4995 36.4962,32.5133 36.4962,54.0154 0,42.171 -30.6651,63.3346 -91.8391,63.3346 -10.4907,0 -29.3375,-2.68124 -56.6706,-8.0177 -27.4893,-5.33646 -48.8351,-7.99167 -63.9854,-7.99167 -74.346,0 -111.519,28.0099 -111.519,84.1598 0,17.1808 8.66849,32.8518 26.0055,46.8307 17.337,14.0049 38.839,24.1833 64.5061,30.3527 -73.6691,34.4917 -110.504,94.4943 -110.504,179.982 0,54.6661 19.003,100.351 57.1652,136.848 38.1622,36.4962 85.1751,54.8223 141.169,54.8223 51.5163,0 91.6829,-10.6729 120.682,-31.8365l46.4923 55.8376 60.4972 -57.1652 -55.6553 -42.171c23.8188,-30.8213 35.6632,-71.3263 35.6632,-121.151 0,-52.8439 -16.504,-97.0194 -49.3297,-133.021 -32.8518,-35.8193 -76.012,-56.3322 -129.507,-61.4864l-76.6628 -7.99167c-9.16309,-1.01523 -21.3458,-4.50345 -36.6784,-10.5167 -15.1764,-5.98724 -22.8296,-13.8227 -22.8296,-23.5064 0,-13.3281 16.0094,-19.9922 47.8199,-19.9922 14.0049,0 35.8454,2.49902 65.5213,7.49707 29.6499,4.99805 51.6465,7.49707 65.9898,7.49707 51.4903,0 91.6569,-12.3129 120.5,-36.8346 28.8429,-24.4956 43.1602,-58.649 43.1602,-102.148 0,-48.1843 -21.502,-86.9973 -64.6622,-116.673 -43.1602,-29.4937 -97.8264,-44.3316 -163.998,-44.3316 -33.8409,0 -69.5041,5.98724 -106.989,17.9878 -37.3552,12.0005 -67.4997,26.6823 -90.3293,43.837zm196.642 601.171c-32.3311,0 -58.649,-11.3237 -78.9796,-34.1533 -20.5128,-22.8557 -30.6651,-50.6833 -30.6651,-83.1706 0,-36.4962 9.81387,-66.8489 29.6499,-90.6677 19.6798,-24.001 46.3361,-36.0016 79.9948,-36.0016 33.0079,0 58.8572,11.6621 77.5218,34.9863 18.4824,23.3503 27.8277,53.8331 27.8277,91.6829 0,32.4873 -9.9961,60.315 -30.1705,83.1706 -19.9922,22.8296 -45.1646,34.1533 -75.179,34.1533z" id="glyph34"></glyph> <glyph unicode="S" d="M41.0044 32.9993l35.6485 90.0138c18.3425,-13.3322 41.1771,-24.5047 68.3598,-33.5176 27.3267,-8.98411 51.6586,-13.505 73.1398,-13.505 38.1824,0 68.8493,10.5103 92.0007,31.3292 23.1801,20.8477 34.8422,47.3393 34.8422,79.5036 0,24.188 -6.50772,46.5043 -19.3216,67.1792 -12.8427,20.675 -45.3525,43.164 -97.1838,67.6687l-57.8208 26.8371c-49.0094,22.8346 -83.1606,49.8157 -102.511,81.0009 -19.4944,31.3292 -29.1695,68.9933 -29.1695,112.82 0,53.5015 19.0048,97.8461 56.8417,133.005 37.8369,35.1589 86.328,52.6664 145.848,52.6664 79.158,0 134.33,-12.8427 165.313,-38.672l-28.824 -85.3202c-12.9866,9.50242 -32.9993,18.8321 -59.6637,27.6722 -26.8371,8.81133 -51.5146,13.3322 -74.3492,13.3322 -33.3161,0 -59.4909,-9.50242 -78.4957,-28.3345 -19.1488,-18.8321 -28.6512,-43.164 -28.6512,-72.8519 0,-18.1698 3.48422,-34.8134 10.3375,-49.8157 6.82446,-15.0023 16.3269,-27.4994 28.4785,-37.5202 12.1804,-10.1647 37.3474,-24.332 75.0115,-42.5017l58.6558 -27.9889c49.0094,-23.0074 83.1894,-50.6796 103,-82.671 19.6671,-32.1642 29.5151,-72.8231 29.5151,-122.322 0,-53.847 -21.6828,-99.3435 -64.8468,-136.835 -43.164,-37.4914 -100.985,-56.1795 -173.318,-56.1795 -63.5222,0 -117.83,15.0023 -162.837,45.0069z" id="glyph35"></glyph> <glyph unicode="B" d="M277.335 0l-204.337 0 0 715.662c87.1603,4.16536 149.823,6.32615 188.327,6.32615 70.8372,0 125.664,-15.1515 164.506,-45.6628 38.842,-30.4853 58.1589,-73.9873 58.1589,-130.662 0,-33.1667 -12.3139,-63.4958 -36.9936,-90.831 -24.836,-27.3352 -51.989,-44.4913 -82.0056,-51.3381 56.5188,-13.6676 97.5216,-36.3168 123.347,-67.8173 25.8253,-31.6828 38.6598,-74.6642 38.6598,-129.022 0,-62.8189 -22.9876,-112.986 -69.1711,-150.5 -46.0012,-37.4883 -106.321,-56.1543 -180.49,-56.1543zm-106.347 638.004l0 -206.003c20.5144,-2.00458 46.0012,-2.99386 76.1741,-2.99386 92.4971,0 138.837,37.6705 138.837,112.986 0,66.3334 -42.4867,99.5002 -127.486,99.5002 -32.6721,0 -61.8557,-1.17151 -87.5247,-3.48849zm0 -281.501l0 -273.664c33.5052,-3.17609 59.1742,-4.84224 77.0072,-4.84224 61.1788,0 105.67,11.5068 133.838,34.4944 28.1683,23.0136 42.1743,59.6689 42.1743,110.018 0,46.6521 -13.3292,80.9903 -40.1697,103.171 -26.8406,22.1545 -71.6703,33.3229 -134.333,33.3229l-78.5171 -2.49922z" id="glyph36"></glyph> <glyph unicode="u" d="M154.002 523l0 -333.83c0,-80.8345 35.001,-121.173 104.828,-121.173 30.6662,0 58.5065,8.83528 84.0006,26.3401 25.3371,17.6618 42.0046,38.0013 50.1683,61.1666l0 367.497 93.0016 0 0 -523 -93.0016 0 0 72.3307c-10.3354,-20.4965 -31.329,-39.327 -62.6668,-56.5004 -31.5035,-17.1647 -62.1697,-25.8342 -92.1643,-25.8342 -57.172,0 -101.165,16.5018 -131.5,49.3398 -30.5005,32.8292 -45.6678,79.6658 -45.6678,140.161l0 343.503 93.0016 0z" id="glyph37"></glyph> <glyph unicode=" " d="" id="glyph38"></glyph> <glyph unicode="d" d="M397.997 0l0 38.4984c-32.1663,-31.6692 -79.1599,-47.4994 -140.667,-47.4994 -65.5014,0 -118.496,23.4968 -159.332,70.3334 -40.6702,46.8366 -61.0009,109.338 -61.0009,187.503 0,78.497 23.5055,145.499 70.3334,200.996 46.8366,55.4974 102.831,83.172 167.504,83.172 54.163,0 95.1646,-12.6729 123.162,-38.167l0 242.163 93.0016 0 0 -737 -93.0016 0zm0 402.332c-23.3311,35.1667 -55.4974,52.6715 -96.1676,52.6715 -49.6625,0 -89.9925,-18.5079 -120.667,-55.6718 -30.8319,-36.9983 -46.165,-84.1663 -46.165,-141.495 0,-125.839 57.3377,-188.838 171.839,-188.838 14.4958,0 32.1663,4.66621 52.6628,13.8329 20.5052,9.33243 33.3351,19.1707 38.4984,29.6719l0 289.829z" id="glyph39"></glyph> <glyph unicode="r" d="M350.332 434.001c-20.165,13.9986 -40.4958,21.0023 -61.1666,21.0023 -32.8292,0 -61.6638,-15.1674 -86.1636,-45.3364 -24.6655,-30.3347 -36.9983,-66.6702 -36.9983,-109.338l0 -300.33 -93.0016 0 0 523 93.0016 0 0 -82.9975c33.8322,61.9952 84.332,93.0016 151.159,93.0016 16.5018,0 40.5045,-3.00033 71.8335,-8.83528l-38.6642 -90.1669z" id="glyph40"></glyph> <glyph unicode="a" d="M360.833 59.9979c-36.9983,-46.6621 -93.8301,-70.0019 -170.164,-70.0019 -41.0016,0 -76.4997,15.0017 -106.503,44.8393 -30.169,29.8289 -45.162,66.8271 -45.162,111.335 0,53.1599 23.1653,97.9992 69.496,134.832 46.3307,36.6668 105.334,55.0003 177.168,55.0003 19.5022,0 41.6645,-4.33478 66.33,-13.0043 0,84.6721 -37.6611,126.999 -113.167,126.999 -58.0006,0 -102.5,-15.6645 -133.829,-46.9936l-39.0043 77.9999c17.6706,14.3301 42.0046,26.4971 73.0023,36.6668 31.1633,10.161 60.8352,15.3331 89.1639,15.3331 75.8369,0 131.003,-17.3391 165.332,-51.8342 34.3381,-34.5038 51.5028,-89.3384 51.5028,-164.669l0 -187.669c0,-45.8336 13.6672,-76.4997 41.0016,-91.8328l0 -45.9993c-37.8356,0 -66.1643,5.3378 -84.8379,16.0047 -18.8306,10.6669 -32.1663,28.3287 -40.33,52.9942zm-8.83528 197.001c-29.166,6.66353 -49.6625,10.004 -61.3324,10.004 -46.6621,0 -84.8291,-12.167 -114.335,-36.3354 -29.4974,-24.1684 -44.3334,-52.8372 -44.3334,-85.8322 0,-54.5031 32.0006,-81.8375 95.8362,-81.8375 46.8366,0 88.1696,22.3368 124.165,67.0016l0 126.999z" id="glyph41"></glyph> <glyph unicode="o" d="M31.9952 262.678c0,80.8341 21.6599,146.152 65.1619,195.824 43.502,49.672 100.672,74.508 171.665,74.508 74.8464,0 132.849,-23.8467 174.19,-71.6703 41.3152,-47.6674 61.9858,-113.845 61.9858,-198.662 0,-84.3486 -21.1653,-150.838 -63.4958,-199.677 -42.3305,-48.6567 -99.8386,-72.998 -172.68,-72.998 -74.6642,0 -132.667,24.6538 -174.321,73.8311 -41.6797,49.1773 -62.5065,115.511 -62.5065,198.844zm98.0162 0c0,-131.183 46.3137,-196.683 138.811,-196.683 43.0074,0 76.851,17.4945 101.349,52.6658 24.4976,35.1713 36.8374,83.1771 36.8374,144.017 0,129.491 -46.0012,194.314 -138.186,194.314 -42.3305,0 -75.9919,-17.1561 -101.166,-51.6505 -25.1484,-34.5205 -37.6445,-82.0056 -37.6445,-142.664z" id="glyph42"></glyph> <glyph unicode="l" d="M72.9923 147.677l0 589.327 93.0105 0 0 -573.682c0,-27.9839 7.99167,-49.9805 24.001,-66.146 16.1656,-16.1656 37.173,-24.1833 62.9962,-24.1833l0 -82.9884c-120.005,0 -180.008,52.5055 -180.008,157.673z" id="glyph43"></glyph> <glyph unicode="Ś" d="M41.0028 33.0105l35.6659 89.9979c18.3276,-13.3292 41.159,-24.4976 68.338,-33.5052 27.3352,-9.0076 51.6505,-13.5114 73.1542,-13.5114 38.1652,0 68.8327,10.5175 92.0025,31.3444 23.1698,20.8268 34.8329,47.329 34.8329,79.5064 0,24.1591 -6.50838,46.4959 -19.3169,67.1665 -12.8345,20.6446 -45.3504,43.1636 -97.1832,67.6611l-57.8205 26.8406c-49.0211,22.8314 -83.1771,49.8282 -102.52,80.9903 -19.4991,31.3444 -29.1576,68.9889 -29.1576,112.829 0,53.4989 19.0045,97.834 56.8312,133.005 37.8267,35.1713 86.3272,52.6658 145.84,52.6658 79.168,0 134.333,-12.8345 165.339,-38.6598l-28.8452 -85.3379c-12.9907,9.50224 -32.9845,18.8222 -59.6689,27.6736 -26.8145,8.82537 -51.4943,13.3292 -74.3257,13.3292 -33.3229,0 -59.5127,-9.50224 -78.4911,-28.3505 -19.1867,-18.8222 -28.689,-43.1636 -28.689,-72.8158 0,-18.1714 3.51453,-34.8329 10.3353,-49.8282 6.84682,-15.0213 16.3491,-27.5174 28.5067,-37.5143 12.1577,-10.1531 37.3321,-24.3414 75.0026,-42.4867l58.6796 -28.0121c48.9951,-22.9876 83.1511,-50.6613 102.989,-82.6565 19.6553,-32.1774 29.496,-72.8418 29.496,-122.332 0,-53.8373 -21.6599,-99.344 -64.8235,-136.832 -43.1636,-37.5143 -101.01,-56.1804 -173.331,-56.1804 -63.5218,0 -117.854,14.9953 -162.84,45.012zm332.006 902.999l-111.007 -163.022 -67.9996 0 82.9949 163.022 96.0117 0z" id="glyph44"></glyph> <glyph unicode="ż" d="M165.99 82.9949l290.014 0 0 -82.9949 -436.01 0 0 24.4976 298.006 415.495 -293.007 0 0 82.9949 428.017 0 0 -26.3199 -287.02 -413.673zm74.3518 659.013c15.8284,0 29.496,-5.67531 40.8206,-16.8437 11.1684,-11.3246 16.8437,-24.836 16.8437,-40.3259 0,-16.0106 -5.67531,-29.6782 -16.8437,-41.0028 -11.3246,-11.1684 -24.9922,-16.8437 -40.8206,-16.8437 -15.6722,0 -29.1836,5.67531 -40.5082,16.8437 -11.1684,11.3246 -16.8437,24.9922 -16.8437,41.0028 0,15.8284 5.51911,29.496 16.6875,40.5082 10.9862,11.1424 24.6538,16.6615 40.6644,16.6615z" id="glyph45"></glyph> <glyph unicode="i" d="M161.338 721.004c15.8302,0 29.4974,-5.66923 40.8272,-16.8333 11.1727,-11.3385 16.8333,-24.84 16.8333,-40.3388 0,-15.996 -5.66051,-29.6632 -16.8333,-41.0016 -11.3297,-11.164 -24.9969,-16.8333 -40.8272,-16.8333 -15.6732,0 -29.1747,5.66923 -40.5045,16.8333 -11.164,11.3385 -16.8333,25.0057 -16.8333,41.0016 0,15.839 5.50351,29.4974 16.6675,40.5045 10.9983,11.164 24.6655,16.6675 40.6702,16.6675zm-51.3371 -721.004l0 445 -71.9992 0 0 77.9999 165.001 0 0 -523 -93.0016 0z" id="glyph46"></glyph> <glyph unicode="z" d="M166.004 82.9975l289.994 0 0 -82.9975 -435.999 0 0 24.4998 298.001 415.502 -293.003 0 0 82.9975 428.001 0 0 -26.3314 -286.994 -413.671z" id="glyph47"></glyph> </font>
</defs>
</svg>
